<?xml version="1.0" standalone="no"?>
<!DOCTYPE svg PUBLIC "-//W3C//DTD SVG 1.1//EN" "http://www.w3.org/Graphics/SVG/1.1/DTD/svg11.dtd">
<svg xmlns="http://www.w3.org/2000/svg">
<metadata>Copyright (C) 2024 by original authors @ fontello.com</metadata>
<defs>
<font id="fontello" horiz-adv-x="1000" >
<font-face font-family="fontello" font-weight="400" font-stretch="normal" units-per-em="1000" ascent="850" descent="-150" />
<missing-glyph horiz-adv-x="1000" />
<glyph glyph-name="ansuz-full" unicode="&#xe800;" d="M637 485v139l-274 226v-1000l121 142v316l153-126v139l-153 126v164z" horiz-adv-x="1000" />

<glyph glyph-name="ansuz-empty" unicode="&#xe801;" d="M358-149v998l284-234v-168l-142 117v-113l142-117v-168l-142 118v-266l-142-167z m30 935v-853l82 96v318l142-117v90l-142 117v191l142-117v90l-224 185z" horiz-adv-x="1000" />

<glyph glyph-name="arrow-d" unicode="&#xe802;" d="M476-148v972c0 14 11 25 25 25s25-11 25-25v-853l135 131c10 10 26 9 35 0 10-10 9-26 0-35l-220-215z" horiz-adv-x="1000" />

<glyph glyph-name="arrow-l" unicode="&#xe803;" d="M4 374h972c14 0 25-11 25-25s-11-25-25-25h-854l131-135c10-10 9-26 0-35-10-10-26-9-35 0l-214 220z" horiz-adv-x="1000" />

<glyph glyph-name="arrow-r" unicode="&#xe804;" d="M998 325h-971c-14 0-25 11-25 25s11 25 25 25h853l-132 135c-10 10-9 26 0 35 10 10 26 9 35 0l215-220z" horiz-adv-x="1000" />

<glyph glyph-name="arrow-u" unicode="&#xe805;" d="M525 847v-972c0-14-11-25-25-25s-25 11-25 25v853l-134-131c-10-10-26-9-35 0-10 10-9 26 0 35l219 215z" horiz-adv-x="1000" />

<glyph glyph-name="healthcare" unicode="&#xe806;" d="M988 273c-20 30-60 40-92 23l-267-143-207 104c-31 16-68 20-102 11l-176-44v28c0 8-7 15-15 15h-114c-8 0-15-7-15-15v-297c0-8 7-15 15-15h114c8 0 15 7 15 15v35l449-88c25-5 52 2 72 18l312 260c26 25 30 64 11 93m-874-303h-84v267h84v-267z m843 234l-312-260c-13-11-30-15-47-12l-455 89v173l184 46c27 7 56 4 81-9l214-108 22-11c19-8 28-31 20-50-8-19-31-28-50-20-2 1-3 1-5 2l-232 106c-7 4-16 0-20-7-4-7 0-16 7-20l231-106c9-5 20-7 30-7 38 0 68 30 68 68 0 24-13 47-34 59l251 132c20 11 45 3 55-17 9-16 6-36-8-48m-630 258h94v-94c0-8 7-15 15-15h128c8 0 15 7 15 15v94h94c8 0 15 7 15 15v129c0 8-7 15-15 15h-94v94c0 8-7 15-15 15h-128c-8 0-15-7-15-15v-94h-94c-8 0-15-7-15-15v-128c0-9 6-16 15-16m15 129h94c8 0 15 7 15 15v94h98v-94c0-8 7-15 15-15h94v-98h-94c-8 0-15-7-15-15v-94h-98v94c0 8-7 15-15 15h-94v98z m-180-11h22v-22c0-8 7-15 15-15s15 7 15 15v22h22c8 0 15 7 15 15s-7 15-15 15h-22v22c0 8-7 15-15 15s-15-7-15-15v-22h-22c-8 0-15-7-15-15 0-9 7-15 15-15m525-305c8 0 15 7 15 15v22h22c8 0 15 7 15 15s-7 15-15 15h-22v22c0 8-7 15-15 15s-15-7-15-15v-22h-22c-8 0-15-7-15-15s7-15 15-15h22v-22c0-9 6-15 15-15m6 457h22v-22c0-8 7-15 15-15s15 7 15 15v22h22c8 0 15 7 15 15s-7 15-15 15h-22v22c0 8-7 15-15 15s-15-7-15-15v-22h-22c-8 0-15-7-15-15s6-15 15-15c-1 0-1 0 0 0" horiz-adv-x="1000" />

<glyph glyph-name="it" unicode="&#xe807;" d="M951 782h-902c-27 0-49-22-49-49v-613c0-27 22-49 49-49h342v-123h-61c-8 0-15-7-14-16 0-8 7-14 14-14h340c8 0 15 7 14 16 0 8-7 14-14 14h-62v123h342c27 0 49 22 49 49v613c1 27-21 49-48 49m-902-30h901c11 0 19-9 19-19v-546h-225v242l41 41c28-16 63-6 79 21 16 28 6 63-21 79-28 16-63 6-79-21-10-18-10-40 0-58l-46-46c-3-3-4-7-4-11v-249h-123v365c31 8 49 40 41 70-8 31-40 49-70 41-31-8-49-40-41-70 5-20 21-35 41-41v-363h-124v363c31 8 49 40 41 70s-40 49-70 41c-31-8-49-40-41-70 5-20 21-35 41-41v-363h-124v248c0 4-2 8-4 11l-46 46c16 27 6 63-21 78-27 16-63 6-78-21s-6-63 21-78c18-10 40-10 57 0l41-41v-242h-225v545c0 10 9 19 19 19m738-232c0 15 12 28 28 28s28-12 28-28c0-15-12-28-28-28-16 0-28 13-28 28m-211 57c-15 0-28 12-28 28 0 15 12 28 28 28 15 0 28-12 28-28 0-15-12-28-28-28m-153 0c-15 0-28 12-28 28 0 15 12 28 28 28 15 0 28-12 28-28 0-15-12-28-28-28m-238-85c-15 0-28 12-28 28 0 15 12 28 28 28s28-12 28-28c0-15-12-28-28-28m394-544h-158v123h157l1-123z m372 153h-902c-10 0-19 9-19 19v36h940v-36c0-10-9-19-19-19" horiz-adv-x="1000" />

<glyph glyph-name="target-dollar" unicode="&#xe808;" d="M483 403h68c8 0 15 7 15 15s-7 15-15 15h-36v19c0 8-7 15-15 15s-15-7-15-15v-19h-2c-27 0-49-22-49-49s22-49 49-49h34c11 0 19-9 19-19s-9-19-19-19h-68c-8 0-15-7-15-15s7-15 15-15h36v-19c0-8 7-15 15-15s15 7 15 15v19h2c27 0 49 22 49 49s-22 49-49 49h-34c-11 0-19 9-19 19s8 19 19 19z m17 200c-140 0-253-113-253-253s113-253 253-253 253 113 253 253-113 253-253 253z m0-476c-123 0-223 100-223 223s100 223 223 223 223-100 223-223-100-223-223-223z m0 408c-102 0-185-83-185-185s83-185 185-185 185 83 185 185-83 185-185 185z m0-340c-86 0-155 70-155 155s70 155 155 155c86 0 155-70 155-155s-69-155-155-155z m485 170h-37c-7 236-197 426-433 434v36c0 8-7 15-15 15s-15-7-15-15v-37c-236-7-426-197-434-433h-36c-8 0-15-7-15-15s7-15 15-15h37c8-236 198-426 434-434v-37c0-8 7-15 15-15s15 7 15 15v37c236 8 426 198 434 434h37c8 0 15 7 15 15s-9 15-17 15z m-66 0h-39c-7 198-167 358-365 365v39c219-8 396-185 404-404z m-104-30h36c-8-182-154-328-336-336v36c0 8-7 15-15 15s-15-7-15-15v-36c-182 8-328 154-336 336h36c8 0 15 7 15 15s-7 15-15 15h-36c8 182 154 328 336 336v-36c0-8 7-15 15-15s15 7 15 15v36c182-8 328-154 336-336h-36c-8 0-15-7-15-15s7-15 15-15z m-330 434v-39c-198-7-358-167-365-365h-39c8 219 185 396 404 404z m-404-434h39c7-198 167-358 365-365v-38c-219 7-396 184-404 403z m434-404v39c198 7 358 167 365 365h38c-7-219-184-396-403-404z" horiz-adv-x="1000" />

<glyph glyph-name="uruz-full" unicode="&#xe809;" d="M278 850v-873h122v598l200-170v-436l122-119v625z" horiz-adv-x="1000" />

<glyph glyph-name="uruz-empty" unicode="&#xe80a;" d="M721-148l-143 140v404l-156 132v-538h-143v858l442-374v-622z m-113 152l83-81v538l-382 323v-764h83v573l216-183v-406z" horiz-adv-x="1000" />

<glyph glyph-name="logo" unicode="&#xe80b;" d="M674 218l326 526h-383l-176-286h-124l-81 90h179l-91 102h-325l617-693v167l-207 232h95l169 273h142l-141-228z" horiz-adv-x="1000" />

<glyph glyph-name="automotive" unicode="&#xe80c;" d="M999 368c-4 40-34 71-74 75l-182 18-70 31-139 63c-9 4-18 7-27 8-5 1-9 1-14 1h-204c-2 0-5-1-6-1l-188-88c-17-8-35-12-54-12-22 0-41-18-41-41v-120c0-41 34-75 75-75h22c5-51 48-92 100-92 53 0 96 41 100 92h403c5-51 48-92 100-92 53 0 96 41 100 92h40c32 0 58 26 58 58 2 88 2 81 1 83z m-329 94h-199l-55 73h78c4 0 8 0 12-1 6-1 11-3 17-5 5-3 6-4 147-67z m-292 73l55-73h-66c-4 0-7 2-9 5l-42 68h62z m-337-103c24 0 46 5 67 15l175 83 49-79c7-12 20-19 35-19h372l183-19c21-2 37-16 44-34h-662c-10 0-20 3-28 9-47 32-108 32-156 0-8-5-17-8-26-8l-64-1v43c0 5 5 10 11 10z m157-267c-39 0-71 32-71 71s32 71 71 71c39 0 71-32 71-71s-32-71-71-71z m604 0c-39 0-71 32-71 71s32 71 71 71c39 0 71-32 71-71s-32-71-71-71z m140 92h-41c-10 46-50 80-99 80s-89-34-99-80h-406c-10 46-50 80-99 80s-89-34-99-80h-24c-25 0-45 20-45 45v47l64 1c15 0 30 5 43 14 37 25 85 25 122-1 13-9 29-14 45-14h666v-65c0-15-12-27-28-27z m-744 20c-23 0-41-18-41-41s18-41 41-41 41 18 41 41-19 41-41 41z m0-52c-6 0-11 5-11 11 0 6 5 11 11 11 6 0 11-5 11-11 0-6-5-11-11-11z m604 52c-23 0-41-18-41-41s18-41 41-41 41 18 41 41-18 41-41 41z m0-52c-6 0-11 5-11 11 0 6 5 11 11 11 6 0 11-5 11-11 0-6-5-11-11-11z m-432 164h40c8 0 15 7 15 15s-7 15-15 15h-40c-8 0-15-7-15-15s6-15 15-15z" horiz-adv-x="1000" />

<glyph glyph-name="multigrowth" unicode="&#xe80d;" d="M928 716l-93 126c-6 8-18 8-24 0l-94-126c-3-5-4-10-1-15 3-5 8-8 13-8h26v-218l-76-87c-14 58-56 106-111 128v176h26c6 0 11 3 13 8 3 5 2 11-1 15l-94 127c-6 8-18 8-24 0l-94-126c-3-5-4-10-1-15 3-5 8-8 13-8h26v-178c-56-22-97-71-111-128l-76 87v218h26c6 0 11 3 13 8 3 5 2 11-1 15l-94 127c-6 8-18 8-24 0l-93-126c-3-5-4-10-1-15 3-5 8-8 13-8h26v-266c0-4 1-7 4-10l143-158v-119c-14-19-21-43-21-67v-177c0-24 19-43 43-43h443c24 0 43 19 43 43v177c0 24-8 47-21 67v119l143 158c2 3 4 6 4 10v265h26c6 0 11 3 13 8 3 5 2 11-1 15z m-428 92l64-87h-11c-8 0-15-7-15-15v-183c-8 2-15 3-23 3h-28c-8 0-15-2-23-3v184c0 8-7 15-15 15h-11l64 87z m-48-318c30 10 63 10 93 1 1 0 3 0 4-1 60-20 103-75 106-138v-9c0-40-15-78-43-106-2-2-4-5-7-7-3-2-5-5-8-7-15-12-31-21-49-27-31-10-66-10-96 0-21 7-41 19-57 34-2 2-5 4-7 7-27 29-43 67-43 106v9c3 63 46 119 106 138z m-313-58v275c0 8-7 15-15 15h-11l64 87 64-87h-11c-8 0-15-7-15-15v-239c0-4 1-7 4-10l97-111v-4c0-47 18-92 51-127l8-8s2-2 3-2c2-2 4-3 6-5 1 0 2-2 4-3 2-1 3-3 5-4 1-1 3-2 4-3 1 0 3-2 4-3h-64c-4 0-8-1-11-2-3 0-7-2-10-3h-3c-4-1-7-3-10-4h-2c-3-1-6-3-9-5 0 0-2 0-2-1h-2v95c0 4-1 7-4 10l-143 158z m596-536c0-8-6-14-14-14h-64v114c0 8-7 15-15 15s-15-7-15-15v-114h-256v114c0 8-7 15-15 15s-15-7-15-15v-114h-64c-8 0-14 6-14 14v177c0 19 6 38 18 53 16 21 41 33 68 33h298c27 0 51-12 68-33 12-15 18-34 18-53v-177z m141 826c-8 0-15-7-15-15v-275l-143-158c-2-3-4-6-4-10v-95s-1 0-2 1c0 0-1 0-2 1-3 2-6 3-9 5h-1c-3 2-7 3-10 4h-3c-3 1-7 2-10 3-4 0-8 1-11 2h-64c2 0 3 2 4 3 1 0 3 2 4 3 2 1 3 3 5 4 1 0 2 2 4 3 2 2 4 3 5 5l3 3 8 8c33 34 51 79 51 127v4l97 111c2 3 4 6 4 10v241c0 8-7 15-15 15h-11l64 87 64-87h-11z" horiz-adv-x="1000" />

<glyph glyph-name="tutorial2" unicode="&#xe80e;" d="M878 802h-756c-49 0-90-40-90-90v-741c0-38 31-69 69-69h28v-18c0-10 8-18 18-18h253c10 0 17 8 17 18v75h460c49 0 90 40 90 90v664c0 49-40 90-90 90z m-495-900h-218v238c0 10-8 18-18 18s-18-8-18-18v-202h-28c-19 0-34 15-34 34v197c0 44 36 80 80 80h227c12 0 24-5 33-14l90-90c7-7 18-7 25 0l102 102c12 12 31 14 43 4 7-6 11-14 11-23 0-9-3-17-9-23l-129-129c-17-17-45-17-61 0l-65 65c-5 5-13 7-19 4-7-3-11-9-11-16v-227z m550 148c0-30-24-55-55-55h-460v91l35-35c31-31 80-31 111 0l129 129c13 13 20 31 19 50 0 14-6 27-15 38l78 192c4 9 0 19-10 23-9 4-19 0-23-10l-75-185c-24 8-51 2-70-17l-90-90-77 77c-15 15-36 24-58 24h-225c-31 0-59-12-80-32v463c0 30 24 55 55 55h756c30 0 55-24 55-55v-663z m-669 485c-63 0-114-51-114-114s51-114 114-114 114 51 114 114-51 114-114 114z m0-193c-44 0-79 36-79 79s36 79 79 79 79-36 79-79-36-79-79-79z" horiz-adv-x="1000" />

<glyph glyph-name="brand" unicode="&#xe80f;" d="M953 392c0 4-2 8-5 11l-174 168c-3 3-7 4-11 4h-104c15 27 24 58 24 91 0 101-82 184-183 184-101 0-183-83-183-184 0-33 9-64 24-91h-104c-4 0-8-2-11-4l-175-168c-6-6-6-15-1-21l438-526c6-7 18-7 24 0l438 526c2 3 4 6 3 10z m-524 105c22-9 47-14 71-14 52 0 103 23 137 62h103l-52-138h-376l-52 138h103c18-21 41-37 66-48z m71-588l-177 467h354l-177-467z m269 624l131-126h-179l48 126z m-269 286c84 0 153-68 153-153 1-84-71-153-153-153-82-1-154 69-153 153 0 84 69 153 153 153z m-269-286l48-126h-179l131 126z m59-157l163-431-358 431h195z m257-430l163 430h196l-359-430z m-163 707l66-36 36-66c3-5 8-8 13-8 6 0 11 3 13 8l36 66 66 36c5 3 8 8 8 13 0 6-3 11-8 13l-64 37-36 66c-3 5-8 8-14 8-6 0-11-3-13-8l-37-66-66-36c-5-3-8-8-8-13 0-6 3-11 8-14z m85 38c3 1 5 4 6 6l25 46 25-46c1-3 4-5 6-6l46-25-46-25c-3-1-5-4-6-6l-25-45-25 46c-1 3-4 5-6 6l-46 25 46 24z m-369-131c19 0 37 11 45 27 13 25 3 55-22 68l-49 25c-12 6-26 7-38 3-13-4-23-13-29-25-13-24-2-56 22-68l49-25c7-3 14-5 22-5z m-67 85c5 10 17 14 27 9l49-25c10-5 14-17 9-27-5-10-17-14-27-9l-49 25c-10 5-14 17-9 27z m156-5c18-20 52-21 71-3 20 19 22 51 3 71l-81 87c-19 20-51 22-71 3-20-18-21-52-3-71l81-87z m-58 137c8 7 20 7 28-1l81-87c7-8 7-20-1-28-8-7-21-7-28 1l-81 87c-7 7-7 21 1 28z m863-118c-6 12-17 21-29 25-13 4-26 3-38-3l-49-25c-25-13-35-43-22-68 8-17 26-28 45-27 8 0 16 2 23 6l49 25c24 11 34 43 21 67z m-36-41l-49-25c-9-5-22-1-27 9s-1 22 9 27l49 25c9 5 22 1 27-9s1-22-9-27z m-147 22l81 87c19 19 18 53-3 71-20 19-52 18-71-3l-81-87c-19-20-18-52 3-71 19-18 53-17 71 3z m-51 48l81 87c7 8 20 8 28 1 8-7 8-20 1-28l-81-87c-7-8-20-8-28-1-8 8-9 20-1 28z" horiz-adv-x="1000" />

<glyph glyph-name="roi" unicode="&#xe810;" d="M235 247h67c8 0 15 7 15 15s-7 15-15 15h-30v29c0 8-7 15-15 15s-15-7-15-15v-29h-6c-21 0-39-17-39-39v-34c0-21 17-39 39-39h43c5 0 9-4 9-9v-34c0-5-4-9-9-9h-67c-8 0-15-7-15-15s7-15 15-15h30v-29c0-8 7-15 15-15s15 7 15 15v29h6c21 0 39 17 39 39v34c0 21-17 39-39 39h-43c-5 0-9 4-9 9v34c0 5 4 9 9 9z m233-67c0 116-95 211-211 211-117 0-211-94-211-211 0-82 47-153 115-188h-46c-38 0-69-31-69-69 0-38 31-69 69-69h285c38 0 69 31 69 69 0 38-31 69-69 69h-46c67 36 114 107 114 188z m-30-256c0-22-18-39-39-39h-285c-22 0-39 18-39 39 0 22 18 39 39 39h285c22 0 39-18 39-39z m-181 75c-100 0-182 81-182 181 0 100 81 182 182 182 100 0 182-81 182-182-1-100-82-181-182-181z m465 457h67c8 0 15 7 15 15s-7 15-15 15h-30v29c0 8-7 15-15 15s-15-7-15-15v-29h-6c-21 0-39-17-39-39v-34c0-21 17-39 39-39h43c5 0 9-4 9-9v-34c0-5-4-9-9-9h-67c-8 0-15-7-15-15s7-15 15-15h30v-29c0-8 7-15 15-15s15 7 15 15v29h6c21 0 39 17 39 39v34c0 21-17 39-39 39h-43c-5 0-9 4-9 9v34c0 5 4 9 9 9z m232-317c0 38-31 69-69 69h-35c62 37 103 104 103 182 0 116-95 211-211 211-116 0-211-95-211-211 0-77 42-145 103-182h-35c-38 0-69-31-69-69 0-22 10-41 26-54-16-13-26-32-26-54s10-41 26-54c-16-13-26-32-26-54 0-38 31-69 69-69h285c38 0 69 31 69 69 0 22-10 41-26 54 16 13 26 32 26 54s-10 41-26 54c17 13 27 32 27 54z m-392 250c0 100 81 182 182 182 100 0 182-81 182-182 0-100-81-182-182-182-101 1-182 82-182 182z m363-465c0-22-18-39-39-39h-285c-22 0-39 18-39 39 0 22 18 39 39 39h285c21 0 39-18 39-39z m0 107c0-22-18-39-39-39h-285c-22 0-39 18-39 39 0 22 18 39 39 39h285c21 0 39-17 39-39z m-324 69c-22 0-39 18-39 39 0 22 18 39 39 39h285c22 0 39-18 39-39 0-22-18-39-39-39h-285z m-344 471c2 0 4 0 6 1l454 190-27-69c-3-8 1-16 8-19 2-1 4-1 5-1 6 0 12 4 14 9l40 102c3 8-1 16-8 19-1 0-2 1-3 1l-100 39c-8 3-16-1-19-8-3-8 1-16 8-19l68-27-452-189c-8-3-11-12-8-19 2-7 8-10 14-10z" horiz-adv-x="1000" />

<glyph glyph-name="sales-funnel" unicode="&#xe811;" d="M500 497c97 0 176 79 176 176s-79 177-176 177c-97 0-176-80-176-177s79-176 176-176z m0 323c81 0 147-66 147-147s-66-147-147-147-147 66-147 147 66 147 147 147z m17-200h-68c-8 0-15-7-15-15s7-15 15-15h36v-19c0-8 7-15 15-15s15 7 15 15v19h2c27 0 49 22 49 49s-22 49-49 49h-34c-11 0-19 9-19 19s9 19 19 19h68c8 0 15 7 15 15s-7 15-15 15h-36v19c0 8-7 15-15 15s-15-7-15-15v-19h-2c-27 0-49-22-49-49s22-49 49-49h34c11 0 19-9 19-19 0-10-8-19-19-19z m315-162h-664c-8 0-15-7-15-15v-125c0-4 2-8 5-11l250-240v-202c0-5 2-10 7-12 2-2 5-3 8-3 2 0 4 0 6 1l153 63c6 2 9 8 9 14v140l251 240c3 3 5 7 5 11v124c-1 8-7 15-15 15z m-15-30v-95h-634v95h634z m-246-339h-142l-224 215h589l-223-215z m-9-151l-123-50v171h123v-121z" horiz-adv-x="1000" />

<glyph glyph-name="revenue-streams" unicode="&#xe812;" d="M500 590c-132 0-240-108-240-240s108-240 240-240 240 108 240 240-108 240-240 240z m0-453c-117 0-213 95-213 213 0 117 95 213 213 213 117 0 213-95 213-213 0-117-96-213-213-213z m64 283c8 0 14 6 14 14s-6 14-14 14h-50v49c0 8-6 14-14 14-8 0-14-6-14-14v-49h-26c-4 0-7-1-10-4l-23-24c-3-3-4-6-4-10v-60c0-8 6-14 14-14h50v-56h-50c-8 0-14-6-14-14s6-14 14-14h50v-49c0-8 6-14 14-14 8 0 14 6 14 14v49h25c4 0 7 1 10 4l23 23c3 3 4 6 4 10v60c0 8-6 14-14 14h-50v57h51z m-14-84v-41l-16-15h-21v56h37z m-64 28h-36v41l15 15h21v-56z m356-28c7-37 39-66 78-66 44 0 80 36 80 80s-36 80-80 80c-39 0-72-29-78-66h-43c-3 56-20 107-49 151l54 124h38c7-37 39-66 78-66 44 0 80 36 80 80s-36 80-80 80c-39 0-72-29-78-66h-47c-5 0-10-3-13-8l-50-119c-55 67-139 110-232 110-93 0-177-43-232-110l-51 117c-2 5-7 8-13 8h-47c-7 37-39 66-78 66-44 0-80-36-80-80s36-80 80-80c39 0 72 29 78 66h38l55-122c-29-44-47-95-49-151h-43c-7 37-39 66-78 66-44 0-80-36-80-80s36-80 80-80c39 0 72 29 78 66h43c3-56 20-107 49-151l-54-124h-38c-7 37-39 66-78 66-44 0-80-36-80-80s36-80 80-80c39 0 72 29 78 66h47c5 0 10 3 13 8l50 119c55-67 138-110 232-110 93 0 177 43 232 110l51-118c2-5 7-8 13-8h47c7-37 39-66 78-66 44 0 80 36 80 80s-36 80-80 80c-39 0-72-29-78-66h-38l-55 123c29 44 47 95 49 151h43z m78 369c29 0 52-23 52-52s-23-53-52-53c-29 0-52 23-52 52s24 53 52 53z m-840-105c-29 0-52 23-52 52s23 52 52 52c29 0 52-23 52-52s-24-52-52-52z m0-605c-29 0-52 23-52 52-1 30 23 53 52 53 29 0 52-23 52-52 0-29-24-53-52-53z m840 105c29 0 52-23 52-52 0-29-23-52-52-52-29 0-52 23-52 52 0 29 24 52 52 52z m0 302c29 0 52-23 52-52s-23-52-52-52c-29 0-52 23-52 52s24 52 52 52z m-840-104c-29 0-52 23-52 52s23 52 52 52c29 0 52-23 52-52s-24-52-52-52z m420-220c-150 0-272 122-272 272s122 272 272 272 272-122 272-272-122-272-272-272z" horiz-adv-x="1000" />

<glyph glyph-name="tutorial" unicode="&#xe813;" d="M945 174v313c0 7-4 14-11 16l-450 169c-4 1-8 1-12 0l-450-169c-8-2-12-9-12-16 0-7 5-14 11-16l194-73c-3-23-22-149-26-178-1-10 6-20 16-20 11 0 110 1 228-80l32-22c3-2 6-3 10-3s7 1 10 3l32 22c112 76 223 79 228 80 10 1 17 10 16 20l-26 176 175 66v-288c-26-8-46-32-46-61v-69c0-10 8-18 18-18h92c10 0 18 8 18 18v69c-2 29-21 53-47 61z m-468 463l354-133h-357c-10 0-18-8-18-18s8-18 18-18h356l-353-131c-218 82-208 78-400 150l400 150z m20-488l-22-15-22 15c-67 46-145 75-226 84l8 54c71-10 139-36 198-77l32-22c3-2 6-3 10-3s7 1 10 3l32 22c59 40 127 67 198 77l8-54c-81-9-159-38-226-84z m204 234l9-61c-76-11-150-39-213-82l-22-15-23 15c-64 43-137 72-213 82l9 63 223-84c4-1 8-1 12 0l218 82z m254-321h-57v52c0 16 13 28 28 28 16 0 28-13 28-28v-52z" horiz-adv-x="1000" />

<glyph glyph-name="headhunter" unicode="&#xe814;" d="M738 286l-156 26v47c98 34 169 128 169 237 0 137-112 250-251 250-139 0-251-113-251-251 0-110 71-203 169-237v-47l-156-26c-56-9-97-57-97-115v-302c0-8 7-15 15-15s15 7 15 15v303c0 43 31 79 73 85l21 3-26-138c-1-7 3-15 10-17l73-21-15-73c-1-5 1-10 5-13l154-139c3-3 6-4 10-4s7 1 10 4l154 139c4 3 6 8 5 13l-13 74 73 21c7 2 12 9 10 17l-26 138 21-3c42-7 73-43 73-85v-302c0-8 7-15 15-15s15 7 15 15v301c-1 57-42 105-99 115z m-118-11l-35-106-63 55 53 59 45-8z m-120-72l33-28-17-36h-31l-17 36 32 28z m-11-94h22l10-132-20-61-20 61 8 132z m-45 45l16-34-5-70-30 89 19 15z m101-104l-5 71 16 34 18-16-29-89z m-267 545c0 122 99 222 222 222 122 0 222-99 222-222s-100-222-222-222-222 100-222 222z m222-251c18 0 36 2 53 6v-45l-53-60-53 60v45c17-4 35-6 53-6z m-74-61l53-59-63-55-36 106 46 8z m-61-174l-73 21 26 135 32 5 118-353-106 96 13 79c1 7-3 15-10 17z m343 21l-73-21c-7-2-12-9-10-17l13-79-106-96 117 353 32-5 27-135z m-143 465c0 36-29 65-65 65s-65-29-65-65 29-65 65-65c36-1 65 29 65 65z m-101 0c0 20 16 36 36 36s36-16 36-36-16-36-36-36-36 16-36 36z m51-173v7c80 7 144 71 151 151h7c8 0 15 7 15 15s-7 15-15 15h-7c-7 80-71 144-151 151v7c0 8-7 15-15 15s-15-7-15-15v-7c-80-7-144-71-151-151h-7c-8 0-15-7-15-15s7-15 15-15h7c7-80 71-144 151-151v-7c0-8 7-15 15-15s15 7 15 15z m-151 158h6c8 0 15 7 15 15s-8 15-16 15h-6c7 64 58 115 122 122v-6c0-8 7-15 15-15s15 7 15 15v6c64-8 115-58 121-122h-6c-8 0-15-7-15-15s7-15 15-15h6c-7-64-58-115-122-122v6c0 8-7 15-15 15s-15-7-15-15v-6c-63 7-114 58-120 122z" horiz-adv-x="1000" />

<glyph glyph-name="review" unicode="&#xe815;" d="M212-39c-4 0-8 1-12 2-12 5-20 17-20 29v126c0 18-15 33-33 33h-83c-35 0-64 29-64 64v460c0 35 29 64 64 64h872c35 0 64-29 64-64v-459c0-35-29-64-64-64h-508c-9 0-17-3-23-10l-171-171c-6-6-14-10-22-10z m-148 746c-18 0-33-15-33-33v-459c0-18 15-33 33-33h83c35 0 64-29 64-64v-125l172 170c12 12 28 19 45 19h508c18 0 33 15 33 33v460c0 18-15 33-33 33h-872z m375-380c-5 0-10 2-14 5-7 5-11 14-9 23l10 55-40 39c-7 6-9 16-6 24 3 9 10 15 19 16l56 8 25 50c4 8 12 13 21 13 9 0 17-5 21-13l25-50 56-8c9-1 16-8 19-16 3-9 1-18-6-24l-40-39 10-55c2-9-2-18-9-23-7-5-17-6-25-2l-50 26-52-26c-3-2-7-3-11-3z m65 31z m-4 31c4 0 8-1 11-3l40-21-8 44c-1 8 1 16 7 21l32 31-44 6c-8 1-14 6-18 13l-20 40-20-40c-3-7-10-12-18-13l-44-6 32-31c6-5 8-13 7-21l-8-44 40 21c3 2 7 3 11 3z m-4-17z m-68 36z m144 0z m-146 7z m-271-88c-5 0-10 2-14 5-7 5-11 14-9 23l10 55-40 39c-7 6-9 16-6 24 3 9 10 15 19 16l56 8 25 50c4 8 12 13 21 13s17-5 21-13l25-50 56-8c9-1 16-8 19-16 3-9 1-18-6-24l-40-39 10-55c2-9-2-18-9-23-7-5-17-6-25-2l-50 26-50-26c-5-2-9-3-13-3z m65 31z m-4 31c4 0 8-1 11-3l40-21-7 44c-1 8 1 16 7 21l32 31-44 6c-8 1-14 6-18 13l-20 40-20-40c-3-7-10-12-18-13l-44-6 32-31c6-5 8-13 7-21l-8-44 40 21c3 2 7 3 10 3z m-3-17z m-69 36z m144 0z m557-81c-4 0-8 1-11 3l-50 26-50-26c-8-4-18-4-25 2-7 5-11 14-9 23l10 55-40 39c-7 6-9 16-6 24 3 9 10 15 19 16l56 8 25 50c4 8 12 13 21 13 9 0 17-5 21-13l25-50 56-8c9-1 16-8 19-16 3-9 1-18-6-24l-40-39 10-55c2-9-2-18-9-23-7-3-12-5-16-5z m-58 31z m-85 104l32-31c6-5 8-13 7-21l-8-44 40 21c7 4 15 4 22 0l40-21-8 44c-1 8 1 16 7 21l32 31-44 6c-8 1-14 6-18 13l-20 40-20-40c-3-7-10-12-18-13l-44-6z m78-90z m-68 36z m144 0z m2 7z" horiz-adv-x="1000" />

<glyph glyph-name="talk" unicode="&#xe816;" d="M264 535c-63 0-114-51-114-114s51-114 114-114 114 51 114 114-51 114-114 114z m0-193c-44 0-79 36-79 79s36 79 79 79 79-36 79-79-36-79-79-79z m-51 139c2 0 4-1 6-1 4 0 8 2 11 4l72 72h73v-45c0-22 18-40 40-40h283l72-72c3-3 7-4 11-4s4 0 6 1c6 2 9 8 9 14v314c0 22-18 40-40 40h-130v71c0 8-7 15-15 15h-366c-22 0-40-18-40-40v-315c0-6 4-11 9-14z m542 254c6 0 11-5 11-11v-279l-51 51c-3 3-7 4-11 4h-289c-6 0-11 5-11 11v45h181c22 0 40 18 40 40v138h130z m-521 75c0 6 5 11 11 11h351v-223c0-6-5-11-11-11h-289c-4 0-8-2-11-4l-51-51v278z m145-738l-70 14c32 26 53 66 53 111 0 79-64 143-143 143s-143-64-143-143 21-85 53-111l-70-14c-34-7-59-38-59-73v-134c0-8 7-15 15-15s15 7 15 15v134c0 21 15 40 36 44l103 21c16-6 32-9 50-9s35 3 50 9l103-21c21-4 36-23 36-44v-134c0-8 7-15 15-15s15 7 15 15v134c0 35-25 66-60 73z m-273 125c0 62 51 113 113 113s113-51 113-113-51-113-113-113-113 51-113 113z m-6-262c-8 0-15-7-15-15v-55c0-8 7-15 15-15s15 7 15 15v55c0 8-7 15-15 15z m238 0c-8 0-15-7-15-15v-55c0-8 7-15 15-15s15 7 15 15v55c0 8-7 15-15 15z m-27 793h207c8 0 15 7 15 15s-7 15-15 15h-207c-8 0-15-7-15-15s7-15 15-15z m0-79h104c8 0 15 7 15 15s-7 15-15 15h-104c-8 0-15-7-15-15s7-15 15-15z m629-577l-70 14c32 26 53 66 53 111 0 79-64 143-143 143s-143-64-143-143 21-85 53-111l-70-14c-35-7-60-38-60-73v-134c0-8 7-15 15-15s15 7 15 15v134c0 21 15 40 36 44l103 21c16-6 32-9 50-9s35 3 50 9l103-21c21-4 36-23 36-44v-134c0-8 7-15 15-15s15 7 15 15v134c0 35-25 66-60 73z m-272 125c0 62 51 113 113 113s113-51 113-113-51-113-113-113-113 51-113 113z m-6-262c-8 0-15-7-15-15v-55c0-8 7-15 15-15s15 7 15 15v55c0 8-7 15-15 15z m238 0c-8 0-15-7-15-15v-55c0-8 7-15 15-15s15 7 15 15v55c0 8-7 15-15 15z" horiz-adv-x="1000" />

<glyph glyph-name="analytics" unicode="&#xe817;" d="M951 714h-53v121c0 8-7 15-15 15h-766c-8 0-15-7-15-15v-121h-53c-27 0-49-22-49-49v-647c0-27 22-49 49-49h346l-5-72c0-10-9-18-19-18h-75c-8 0-15-7-15-15s7-15 15-15h409c8 0 15 7 15 15s-7 15-15 15h-75c-10 0-18 8-19 18l-5 72h346c27 0 49 22 49 49v647c0 27-22 49-49 49z m-819 106h736v-583h-736v583z m-83-136h53v-462c0-8 7-15 15-15h766c8 0 15 7 15 15v462h53c11 0 19-9 19-19v-530h-940v530c0 11 9 19 19 19z m532-789c0-6 2-11 4-16h-169c2 5 4 10 4 16l5 74h151l5-74z m370 104h-902c-11 0-19 9-19 19v87h940v-87c0-11-9-19-19-19z m-153 766h-187c-8 0-15-7-15-15v-153c0-8 7-15 15-15h187c8 0 15 7 15 15v153c0 8-7 15-15 15z m-15-153h-157v123h157v-123z m15-290h-581v189c0 8-7 15-15 15s-15-7-15-15v-204c0-8 7-15 15-15h596c8 0 15 7 15 15s-7 15-15 15z m-596 260h323c8 0 15 7 15 15s-7 15-15 15h-323c-8 0-15-7-15-15s7-15 15-15z m265-104c-6 6-15 6-20 0l-57-52-50 9c-4 0-8 0-11-2l-66-45c-7-5-9-14-4-21 3-4 8-7 12-7s6 0 8 3l61 42 51-9c5 0 9 0 13 4l52 48 63-62c3-3 8-5 13-4 5 0 9 3 11 8l37 66 26 13 48-37c6-4 14-4 19 0l65 60 51-48c6-6 15-5 21 0 6 6 5 15 0 21l-61 57c-6 5-15 5-20 0l-66-61-46 35c-5 3-11 4-16 1l-38-19c-3-1-5-3-6-6l-29-53-59 58z m28 163c8 0 15 7 15 15v34c0 8-7 15-15 15s-15-7-15-15v-34c0-8 7-15 15-15z m-131 0c8 0 15 7 15 15v34c0 8-7 15-15 15s-15-7-15-15v-34c0-8 7-15 15-15z m-131 0c8 0 15 7 15 15v34c0 8-7 15-15 15s-15-7-15-15v-34c0-8 7-15 15-15z m196 0c8 0 15 7 15 15v94c0 8-7 15-15 15s-15-7-15-15v-94c0-8 7-15 15-15z m-131 0c8 0 15 7 15 15v60c0 8-7 15-15 15s-15-7-15-15v-60c0-8 7-15 15-15z" horiz-adv-x="1000" />

<glyph glyph-name="film-slate" unicode="&#xe818;" d="M465 92c-5 0-11 1-15 4-10 6-15 16-15 27v114c0 11 6 21 15 27 10 6 21 6 31 0l99-57c10-6 15-16 15-27s-6-21-15-27l-99-57c-5-3-10-4-15-4z m0 145v-114l99 57-99 57z m493-311h-916c-18 0-33 15-33 33v460c0 9 7 15 15 15h952c9 0 15-7 15-15v-460c0-18-15-33-33-33z m-918 477v-444c0-1 0-2 2-2h916c1 0 2 0 2 2v444h-920z m227 0h-243c-9 0-15 7-15 15v180c0 9 7 15 15 15h175c5 0 9-2 12-6l68-90c2-3 3-6 3-9v-89c0-9-7-15-15-15z m-227 31h212v69l-60 80h-152v-149z m936-31h-709c-9 0-15 7-15 15s7 15 15 15h693v58h-693c-9 0-15 7-15 15s7 15 15 15h709c9 0 15-7 15-15v-89c0-9-7-15-15-15z m-551 0h-87c-6 0-12 4-14 9-2 6-1 12 3 17l87 89c3 3 7 5 11 5h87c6 0 12-4 14-9 2-6 1-12-3-17l-87-89c-3-3-7-5-11-5z m-50 31h43l57 58h-43l-57-58z m246-31h-87c-6 0-12 4-14 9-2 6-1 12 3 17l87 89c3 3 7 5 11 5h87c6 0 12-4 14-9 2-6 1-12-3-17l-87-89c-3-3-7-5-11-5z m-50 31h43l57 58h-43l-57-58z m247-31h-87c-6 0-12 4-14 9-2 6-1 12 3 17l87 89c3 3 7 5 11 5h87c6 0 12-4 14-9 2-6 1-12-3-17l-87-89c-3-3-7-5-11-5z m-50 31h43l57 58h-43l-57-58z m-673 101h-6s-2 0-3 1c0 0-2 1-2 2-3 3-5 7-5 11v6s0 2 1 3c0 0 1 2 2 2 6 6 16 6 22 0l2-2s0-2 1-3v-6c0-4-2-8-5-11-1-1-3-3-5-3s-4-1-6-1z m0-84h-6s-2 0-3 1c0 0-2 1-2 2-2 1-3 3-3 5s-1 4-1 6c0 4 2 8 5 11 4 4 9 5 14 4h3s2 0 3-1c0 0 2-1 2-2 3-3 5-7 5-11s0-4-1-6c0-2-2-4-3-5-1-1-3-3-5-3s-4-1-6-1z m711 179c-3 0-6 1-9 3l-101 73c-5 4-7 10-6 16 1 6 6 11 12 12l85 15c4 0 8 0 12-3l101-73c5-4 7-10 6-16-1-6-6-11-12-12l-85-15h-3z m-62 80l66-48 43 8-66 48-43-8z m-132-114c-3 0-6 1-9 3l-101 73c-5 4-7 10-6 16 1 6 6 11 12 12l85 15c4 0 8 0 12-3l101-73c5-4 7-10 6-16-1-6-6-11-12-12l-85-15h-3z m-62 80l66-48 43 8-66 48-43-8z m-131-114c-3 0-6 1-9 3l-101 73c-5 4-7 10-6 16 1 6 6 11 12 12l85 15c4 0 8 0 12-3l101-73c5-4 7-10 6-16-1-6-6-11-12-12l-85-15h-3z m-63 79l66-48 43 8-66 48-43-8z m-118-111c-7 0-14 5-15 13-1 8 4 16 13 18l708 125-10 57-613-108-294-52c-8-1-16 4-18 13-1 8 4 16 13 18l906 159c8 1 17 0 23-5 7-5 11-12 13-20l13-72c0-4 0-8-3-12-2-3-6-6-10-6l-723-127h-3z m262-516c-92 0-167 75-167 167s75 167 167 167 167-75 167-167-75-167-167-167z m0 302c-75 0-136-61-136-136s61-136 136-136 136 61 136 136-61 136-136 136z" horiz-adv-x="1000" />

<glyph glyph-name="film-light" unicode="&#xe819;" d="M844 756c-5 4-11 4-17 3l-99-32 32 99c2 6 0 12-3 17-4 5-9 8-15 8h-485c-6 0-12-3-15-8-4-5-4-11-3-17l32-99-99 32c-6 2-12 0-17-3-5-4-8-9-8-15v-485c0-6 3-12 8-15 3-2 7-4 11-4h6l99 32-32-99c-2-6 0-12 3-17 4-5 9-8 15-8h134l11-56c2-9 9-15 18-15h60v-207c0-10 8-19 19-19s19 8 19 19v94h40v-28c0-10 8-19 19-19s19 8 19 19v94c0 10-8 19-19 19s-19-8-19-19v-28h-40v75h60c9 0 17 6 18 15l11 56h134c6 0 12 3 15 8 4 5 4 11 3 17l-32 99 99-32h6c4 0 8 1 11 4 5 4 8 9 8 15v485c0 6-3 12-8 15z m-524-438v360h360v-360h-360z m397 495l-32-97h-370l-32 97h433z m-531-98l97-32v-370l-97-32v434z m377-602h-127l-7 34h140l-7-34z m30 71h-310l32 97h370l32-97h-124z m221 98l-97 32v369l97 32v-433z m-434 356c-11 0-19-9-19-19s9-19 19-19 19 9 19 19-9 19-19 19z m0-80c-11 0-19-9-19-19s9-19 19-19 19 9 19 19-9 19-19 19z m80 0c-11 0-19-9-19-19s9-19 19-19 19 9 19 19-9 19-19 19z m80 0c-11 0-19-9-19-19s9-19 19-19 19 9 19 19-9 19-19 19z m80 0c-11 0-19-9-19-19s9-19 19-19 19 9 19 19-9 19-19 19z m-80-81c-11 0-19-9-19-19s9-19 19-19 19 9 19 19-9 19-19 19z m80 0c-11 0-19-9-19-19s9-19 19-19 19 9 19 19-9 19-19 19z m-240-80c-11 0-19-9-19-19s9-19 19-19 19 9 19 19-9 19-19 19z m80 0c-11 0-19-9-19-19s9-19 19-19 19 9 19 19-9 19-19 19z m80 0c-11 0-19-9-19-19s9-19 19-19 19 9 19 19-9 19-19 19z m80 0c-11 0-19-9-19-19s9-19 19-19 19 9 19 19-9 19-19 19z m-160 241c-11 0-19-9-19-19s9-19 19-19 19 9 19 19-9 19-19 19z m80 0c-11 0-19-9-19-19s9-19 19-19 19 9 19 19-9 19-19 19z m80 0c-11 0-19-9-19-19s9-19 19-19 19 9 19 19-9 19-19 19z" horiz-adv-x="1000" />

<glyph glyph-name="storyboard" unicode="&#xe81a;" d="M972 837h-944c-8 0-15-6-15-15v-945c0-8 6-15 15-15h945c8 0 15 6 15 15v945c0 8-6 15-15 15z m-14-945h-916v916h916v-916z m-840 413h194c8 0 15 6 15 15v128c0 8-6 15-15 15h-194c-8 0-15-6-15-15v-128c0-8 6-15 15-15z m15 128h165v-99h-165v99z m-15-195h194c8 0 15 6 15 15s-6 15-15 15h-194c-8 0-15-6-15-15s6-15 15-15z m570 67h194c8 0 15 6 15 15v128c0 8-6 15-15 15h-194c-8 0-15-6-15-15v-128c0-8 6-15 15-15z m14 128h165v-99h-165v99z m-14-195h194c8 0 15 6 15 15s-6 15-15 15h-194c-8 0-15-6-15-15s6-15 15-15z m-285 67h194c8 0 15 6 15 15v128c0 8-6 15-15 15h-194c-8 0-15-6-15-15v-128c0-8 6-15 15-15z m14 128h165v-99h-165v99z m-14-195h194c8 0 15 6 15 15s-6 15-15 15h-194c-8 0-15-6-15-15s6-15 15-15z m-285-218h194c8 0 15 6 15 15v128c0 8-6 15-15 15h-194c-8 0-15-6-15-15v-128c0-8 6-15 15-15z m15 128h165v-99h-165v99z m-15-195h194c8 0 15 6 15 15s-6 15-15 15h-194c-8 0-15-6-15-15s6-15 15-15z m570 67h194c8 0 15 6 15 15v128c0 8-6 15-15 15h-194c-8 0-15-6-15-15v-128c0-8 6-15 15-15z m14 128h165v-99h-165v99z m-14-195h194c8 0 15 6 15 15s-6 15-15 15h-194c-8 0-15-6-15-15s6-15 15-15z m-285 67h194c8 0 15 6 15 15v128c0 8-6 15-15 15h-194c-8 0-15-6-15-15v-128c0-8 6-15 15-15z m14 128h165v-99h-165v99z m-14-195h194c8 0 15 6 15 15s-6 15-15 15h-194c-8 0-15-6-15-15s6-15 15-15z m-285 637h194c8 0 15 6 15 15v128c0 8-6 15-15 15h-194c-8 0-15-6-15-15v-128c0-8 6-15 15-15z m15 127h165v-99h-165v99z m-15-194h194c8 0 15 6 15 15s-6 15-15 15h-194c-8 0-15-6-15-15s6-15 15-15z m570 67h194c8 0 15 6 15 15v128c0 8-6 15-15 15h-194c-8 0-15-6-15-15v-128c0-8 6-15 15-15z m14 127h165v-99h-165v99z m-14-194h194c8 0 15 6 15 15s-6 15-15 15h-194c-8 0-15-6-15-15s6-15 15-15z m-285 67h194c8 0 15 6 15 15v128c0 8-6 15-15 15h-194c-8 0-15-6-15-15v-128c0-8 6-15 15-15z m14 127h165v-99h-165v99z m-14-194h194c8 0 15 6 15 15s-6 15-15 15h-194c-8 0-15-6-15-15s6-15 15-15z" horiz-adv-x="1000" />

<glyph glyph-name="brainstorm" unicode="&#xe81b;" d="M380 481c18-19 27-43 27-67v-15c0-13 8-24 19-30v-55c0-18 15-33 33-33h82c18 0 33 15 33 33v55c11 5 19 17 19 30v15c0 25 9 48 26 66 30 31 46 72 46 114s-19 89-52 120c-34 31-78 47-124 44-81-6-146-71-153-152-4-47 12-91 44-125z m161-170h-82c-2 0-3 1-3 3v51h89v-51c0-2-1-3-3-3z m-176 293c5 66 59 120 125 124h10c34 0 67-13 92-36 28-26 43-61 43-99s-13-68-38-94c-22-23-34-53-34-86v-15c0-2-2-4-4-4h-44v129l60 60c6 6 6 15 0 21-6 6-15 6-21 0l-54-54-54 54c-6 6-15 6-21 0-6-6-6-15 0-21l60-60v-129h-44c-2 0-4 2-4 4v15c0 32-13 63-36 88-26 28-39 64-36 103z m135 181c8 0 15 7 15 15v35c0 8-7 15-15 15s-15-7-15-15v-35c0-8 7-15 15-15z m206-206h35c8 0 15 7 15 15s-7 15-15 15h-35c-8 0-15-7-15-15s7-15 15-15z m-412 30h-35c-8 0-15-7-15-15s7-15 15-15h35c8 0 15 7 15 15s-7 15-15 15z m366 166l-25-25c-6-6-6-15 0-21 3-3 7-4 11-4s8 1 11 4l25 25c6 6 6 15 0 21s-15 6-21 0z m-295-317c-6 6-15 6-21 0l-25-25c-6-6-6-15 0-21s7-4 11-4 8 1 11 4l25 25c6 6 6 15 0 21z m291 0c-6 6-15 6-21 0-6-6-6-15 0-21l25-25c3-3 7-4 11-4s8 1 11 4c6 6 6 15 0 21l-25 25z m-312 271c3-3 7-4 11-4s8 1 11 4c6 6 6 15 0 21l-25 25c-6 6-15 6-21 0s-6-15 0-21l25-25z m268-672l-41 12c16 17 26 41 26 66 0 53-43 97-97 97s-97-43-97-97 10-49 26-66l-41-12c-25-7-42-30-42-56v-136c0-8 7-15 15-15s15 7 15 15v136c0 13 8 24 21 27l64 18c12-5 25-8 39-8s27 3 39 8l64-18c12-3 21-15 21-27v-136c0-8 7-15 15-15s15 7 15 15v136c0 26-17 49-42 56z m-179 78c0 37 30 67 67 67s67-30 67-67-30-67-67-67-67 30-67 67z m-168-78l-41 12c16 17 26 41 26 66 0 53-43 97-97 97s-97-43-97-97 10-49 26-66l-41-12c-25-7-42-30-42-56v-136c0-8 7-15 15-15s15 7 15 15v136c0 13 8 24 21 27l64 18c12-5 25-8 39-8s27 3 39 8l64-18c12-3 21-15 21-27v-136c0-8 7-15 15-15s15 7 15 15v136c0 26-17 49-42 56z m-178 78c0 37 30 67 67 67s67-30 67-67-30-67-67-67-67 30-67 67z m871-78l-41 12c16 17 26 41 26 66 0 53-43 97-97 97s-97-43-97-97 10-49 26-66l-41-12c-25-7-42-30-42-56v-136c0-8 7-15 15-15s15 7 15 15v136c0 13 8 24 21 27l64 18c12-5 25-8 39-8s27 3 39 8l64-18c12-3 21-15 21-27v-136c0-8 7-15 15-15s15 7 15 15v136c0 26-17 49-42 56z m-179 78c0 37 30 67 67 67s67-30 67-67-30-67-67-67-67 30-67 67z" horiz-adv-x="1000" />

<glyph glyph-name="film-camera" unicode="&#xe81c;" d="M578 428h-327c-8 0-14-6-14-14v-196c0-8 6-14 14-14h327c8 0 14 6 14 14v196c0 8-6 14-14 14z m-14-196h-299v168h299v-168z m429 306c-4 3-10 3-14 0l-187-108h-52v18c0 51-41 92-92 92 41 29 68 76 68 130 0 87-71 158-158 158s-119-38-144-93c-25 55-80 93-144 93s-158-71-158-158 27-101 68-130c-43 0-79-30-89-69l-72 33c-4 2-9 2-13 0-4-3-6-7-6-12v-154c0-5 2-9 6-12 2-1 5-2 8-2s4 0 6 1l69 31v-172c0-51 41-92 92-92h151v-32l-74-168c-3-7 0-15 7-19 7-3 15 0 19 7l72 163h119l72-163c2-5 7-8 13-8s4 0 6 1c7 3 10 11 7 19l-74 168v32h151c51 0 92 41 92 92v18h52l187-108c2-1 5-2 7-2s5 0 7 2c4 3 7 7 7 12v421c0 5-3 10-7 12z m-435 262c72 0 130-58 130-130s-58-130-130-130-130 58-130 130 58 130 130 130z m-90-260h-109c24 16 42 39 54 65 12-26 31-49 54-65z m-328 130c0 72 58 130 130 130s130-58 130-130-58-130-130-130-130 58-130 130z m-112-311v110l60-27v-55l-60-27z m441-288h-109v21h109v-21z m243 112c0-35-29-64-64-64h-468c-35 0-64 29-64 64v265c0 35 29 64 64 64h467c35 0 64-29 64-64v-265z m28 219h42v-173h-42v173z m232-272l-162 94v184l162 94v-372z m-414 474c37 0 67 30 67 67s-30 67-67 67-67-30-67-67 30-67 67-67z m0 105c21 0 39-17 39-39s-17-39-39-39-39 17-39 39 17 39 39 39z m-221-39c0 37-30 67-67 67s-67-30-67-67 30-67 67-67 67 30 67 67z m-105 0c0 21 17 39 39 39s39-17 39-39-17-39-39-39-39 17-39 39z" horiz-adv-x="1000" />

<glyph glyph-name="director-chair" unicode="&#xe81d;" d="M919 543h-46v293c0 4-2 8-5 10-3 3-7 4-11 4-14-1-28-3-43-4-92-8-201-12-314-12s-222 4-314 12c-15 1-30 3-43 4-4 0-8 0-11-4-3-3-5-6-5-10v-293h-46c-22 0-40-18-40-40s4-21 12-28c7-8 18-12 28-12h46v-129c0-7 5-12 11-14 6-1 13-3 19-4l274-195-280-199c-18-13-22-38-9-56 7-11 20-17 33-17s16 3 23 7l303 215 303-215c7-5 15-7 23-7 13 0 25 6 33 17 13 18 9 43-9 56l-280 199 274 195c6 1 13 3 19 4 6 1 11 7 11 14v129h46c11 0 21 4 28 12 7 7 12 18 12 28 0 22-18 40-40 40z m-74-171v-26c-4 0-7-2-11-2-7-2-14-3-22-4-15-3-31-6-46-8-16-3-32-5-48-7-69-9-143-13-218-13s-149 4-218 13c-32 4-64 9-95 15-7 1-14 3-21 4-4 0-7 2-11 2v26h2c8-2 17-4 25-5 97-19 207-29 318-29s222 10 318 29c8 2 17 3 25 5h2z m-345-201l-168 119c54-5 111-8 168-8s114 3 168 8l-168-119z m-275 359c6 0 13 0 19-1 6 0 11 0 17-1 7 0 13 0 20-1h436c7 0 14 0 20 1 6 0 11 0 17 1 6 0 13 0 19 1 6 0 11 0 17 1h10v-140c-92-17-196-26-302-26s-209 9-302 26v140h10c6 0 11 0 17-1z m-42 288c93-8 202-13 317-13s224 4 317 13c10 0 19 2 29 3v-256h-1c-3 0-7 0-10-1h-4c-4 0-9 0-14-1-80-7-174-11-272-12h-42c-43 0-85 0-125 2-68 2-132 6-189 11-5 0-10 0-14 1h-17v255c9 0 19-2 29-3z m-111-323c-2 2-3 5-3 8 0 7 5 12 12 12h90v-24h-90c-3 0-6 1-8 4z m98-32v-66c-4 0-8 2-12 3h-4v63h16z m285-324l-232 165h3c5 0 10-2 15-2 3 0 7-1 10-2 5 0 10-1 15-2 3 0 6 0 9-1l201-143-19-13h-2z m378-239c5-4 7-11 3-17-4-5-12-6-17-3l-295 210 21 15 288-205z m-296 233l-32-23-324-230c-5-4-13-2-17 3-4 5-3 13 3 17l307 218 35 25 217 154c3 0 6 0 9 1 5 0 10 1 15 2 4 0 7 1 11 2 5 0 10 1 15 2h3l-240-171z m308 268h-4c-4 0-8-2-12-3v66h16v-63z m82 94c-2-2-5-3-8-3h-90v24h90c7 0 12-5 12-12s-1-6-4-8z" horiz-adv-x="1000" />

<glyph glyph-name="head-idea" unicode="&#xe81e;" d="M991 224l-74 149c-2 88-38 170-102 231-65 62-150 94-239 91-48-2-96-14-138-36-33 57-96 92-163 87-87-6-157-77-161-164-3-52 18-103 57-138 3-2 4-6 4-9v-2c0-14 6-26 16-34-2-5-3-10-3-16v-8c0-9 3-17 7-24-5-7-7-15-7-24v-8c0-18 12-34 28-40 5-21 24-37 47-37h18c18-46 47-87 83-121 44-40 69-97 69-156v-97c0-10 8-19 19-19h291c10 0 19 8 19 19v121h25c72 0 131 59 131 131v25h26c19 0 36 10 46 26 10 16 11 36 2 52z m-841 356c4 69 58 124 126 129h9c55 0 105-33 126-84 7-17 11-34 11-53 0-38-16-75-44-100-11-10-17-23-17-37 0-5-3-8-7-8h-137c-4 0-7 3-7 7v2c0 14-6 27-16 36-30 28-47 67-44 108z m102-290v5c0 10-8 19-19 19h-3c-3 0-5 2-5 5v8c0 3 2 5 5 5 10 0 19 8 19 19s-8 19-19 19-5 2-5 5v8c0 3 2 5 5 5h114c3 0 5-2 5-5v-8c0-3-2-5-5-5-10 0-19-8-19-19s8-19 19-19 5-2 5-5v-8c0-3-2-5-5-5h-3c-10 0-19-8-19-19v-5c0-6-5-11-11-11h-48c-6 0-11 5-11 11z m705-99c-1-2-6-8-14-8h-44c-10 0-19-8-19-19v-44c0-52-42-93-93-93h-44c-10 0-19-8-19-19v-121h-254v78c0 69-30 136-81 183-29 27-52 59-68 94 18 4 33 18 37 36 16 6 28 22 28 40v8c0 9-3 17-7 24 5 7 7 15 7 24v8c0 5-1 11-3 15 10 8 16 20 16 34 0 5 2 8 5 11 36 33 56 79 56 128s-3 35-8 52c38 20 81 32 125 33 80 3 155-26 212-81 57-55 90-129 90-208 0-3 0-6 2-8l76-153c4-7 0-14 0-16z m-670 586c10 0 19 8 19 19v35c0 10-8 19-19 19s-19-8-19-19v-36c0-10 8-19 19-19z m-230-190h-36c-10 0-19-8-19-19s8-19 19-19h36c10 0 19 8 19 19s-8 19-19 19z m53-167l-25-25c-7-7-7-19 0-26 4-4 8-5 13-5s10 2 13 5l25 25c7 7 7 19 0 26-7 7-19 7-26 0z m2 296c4-4 8-5 13-5s10 2 13 5c7 7 7 19 0 26l-25 25c-7 7-19 7-26 0-7-7-7-19 0-26l25-25z m336-7c5 0 10 2 13 5l25 25c7 7 7 19 0 26-7 7-19 7-26 0l-25-25c-7-7-7-19 0-26 4-4 8-5 13-5z" horiz-adv-x="1000" />

<glyph glyph-name="schematics" unicode="&#xe81f;" d="M958 742h-389s-2 0-2 2c-7 32-35 54-68 54s-60-22-68-54c0 0-1-2-2-2h-387c-23 0-42-19-42-42s12-33 28-39v-487c0-26 21-47 47-47h412v-101l-24-22c-7-7-12-17-12-27v-39c0-20 16-36 36-36h26c20 0 36 16 36 36v39c0 10-4 20-12 27l-24 22v101h412c26 0 47 21 47 47v487c16 6 28 21 28 39s-19 42-42 42z m-440-758c2-1 3-4 3-6v-39c0-4-4-8-8-8h-26c-4 0-8 4-8 8v39c0 2 0 4 3 6l18 17 18-17z m-476 729h389c14 0 26 10 30 24 4 19 21 32 40 32s36-13 40-32c3-14 15-24 30-24h389c7 0 13-6 13-14s-6-13-13-13h-918c-7 0-13 6-13 14s6 13 13 13z m902-539c0-10-8-18-18-18h-852c-10 0-18 8-18 18v484h888v-484z m-454 544c5-6 15-6 20 0 5 5 6 14 0 20-5 5-15 5-20 0s-6-14 0-20z m-332-411h77c12 0 22 10 22 22v24h141c8 0 14 6 14 14v32h24c12 0 22 10 22 22v24h70s0-1 1-2l55-55s1 0 2-1v-70h-24c-12 0-22-10-22-22v-24h-82c-6 27-30 47-59 47s-61-27-61-61 27-61 61-61 53 20 59 47h82v-24c0-12 10-22 22-22h77c12 0 22 10 22 22v77c0 12-10 22-22 22h-24v70s1 0 2 1l55 55s0 1 1 2h70v-24c0-12 10-22 22-22h77c12 0 22 10 22 22v77c0 12-10 22-22 22h-77c-12 0-22-10-22-22v-24h-70s0 1-1 2l-54 54c-8 8-23 8-31 0l-55-55s0-1-1-2h-70v24c0 12-10 22-22 22h-24v33c0 8-6 14-14 14h-141v24c0 12-10 22-22 22h-77c-12 0-22-10-22-22v-77c0-12 10-22 22-22h77c12 0 22 10 22 22v24h127v-19h-24c-12 0-22-10-22-22v-77c0-12 10-22 22-22h24v-18h-127v24c0 12-10 22-22 22h-77c-12 0-22-10-22-22v-77c0-12 10-22 22-22z m241-81c-18 0-32 15-32 32s15 32 32 32 32-15 32-32-15-32-32-32z m235 0h-65v65h65v-65z m202 268v-65h-65v65h65z m-235 13l46-46-46-46-46 46 46 46z m-372 16h-65v65h65v-65z m137-29h65v-65h-65v65z m-202-94h65v-65h-65v65z" horiz-adv-x="1000" />

<glyph glyph-name="idea" unicode="&#xe820;" d="M500 742c8 0 14 6 14 14v80c0 8-6 14-14 14s-14-6-14-14v-80c0-8 6-14 14-14z m-177-37c3-5 7-7 12-7s5 0 7 2c7 4 9 13 5 19l-40 69c-4 7-13 9-19 5-7-4-9-13-5-19l40-69z m-184-86l69-40c2-1 5-2 7-2 5 0 10 3 12 7 4 7 2 15-5 19l-69 40c-7 4-15 2-19-5-4-7-2-15 5-19z m-48-207h80c8 0 14 6 14 14s-6 14-14 14h-80c-8 0-14-6-14-14s6-14 14-14z m117-138l-69-40c-7-4-9-13-5-19 4-7 13-9 19-5l69 40c7 4 9 13 5 19-4 7-13 9-19 5z m584 0c-7 4-15 2-19-5-4-7-2-15 5-19l69-40c2-1 5-2 7-2 5 0 10 3 12 7 4 7 2 15-5 19l-69 40z m23 153c0-8 6-14 14-14h80c8 0 14 6 14 14s-6 14-14 14h-80c-8 0-14-6-14-14z m-30 150c2 0 5 0 7 2l69 40c7 4 9 13 5 19-4 7-13 9-19 5l-69-40c-7-4-9-13-5-19 3-5 7-7 12-7z m-128 122c2-1 5-2 7-2 5 0 10 3 12 7l40 69c4 7 2 15-5 19-7 4-15 2-19-5l-40-69c-4-7-2-15 5-19z m-349-58c-61-55-96-133-96-215s30-149 84-203c67-68 63-150 63-152 0-14 8-26 20-31v-89c0-19 14-36 33-39 0-35 30-63 65-63h48c35 0 64 28 65 63 19 3 33 20 33 39v89c12 5 20 17 20 31 0 0-3 87 59 148 63 62 95 148 86 236-13 134-120 242-254 257-83 9-163-16-225-72z m145-403h-22c-12 0-22 10-22 22s10 22 22 22 22-10 22-22v-22z m66-172h-38v144h38v-144z m74-28v-34h-186v34h186z m-69-160h-48c-19 0-35 15-36 34h121c-1-19-17-34-36-34z m69 74c0-6-5-11-11-11h-163c-6 0-11 5-11 11v23h186v-23z m165 501c8-80-20-157-77-213-72-70-68-167-68-168 0-3-3-6-6-6h-60v144h22c27 0 50 22 50 50s-22 50-50 50-50-22-50-50v-22h-38v22c0 27-22 50-50 50s-50-22-50-50 22-50 50-50h22v-144h-60c-3 0-6 3-6 6 0 1 5 95-71 171-49 49-76 114-76 183s31 144 86 193c48 43 109 66 173 66s20 0 30-2c121-13 217-111 229-232z m-211-215v22c0 12 10 22 22 22s22-10 22-22-10-22-22-22h-22z" horiz-adv-x="1000" />

<glyph glyph-name="media-strip" unicode="&#xe821;" d="M925 822h-850c-25 0-46-21-46-46v-851c0-25 21-46 46-46h851c25 0 46 21 46 46v850c0 25-21 46-46 46z m19-897c0-10-8-18-18-18h-851c-10 0-18 8-18 18v850c0 10 8 18 18 18h851c10 0 18-8 18-18v-851z m-639 708h64c8 0 14 6 14 14v96c0 8-6 14-14 14h-64c-8 0-14-6-14-14v-96c0-8 6-14 14-14z m14 96h36v-68h-36v68z m-113 28h-64c-8 0-14-6-14-14v-96c0-8 6-14 14-14h64c8 0 14 6 14 14v96c0 8-6 14-14 14z m-14-96h-36v68h36v-68z m503 96h-64c-8 0-14-6-14-14v-96c0-8 6-14 14-14h64c8 0 14 6 14 14v96c0 8-6 14-14 14z m-14-96h-36v68h36v-68z m-213-28h64c8 0 14 6 14 14v96c0 8-6 14-14 14h-64c-8 0-14-6-14-14v-96c0-8 6-14 14-14z m14 96h36v-68h-36v68z m377 28h-64c-8 0-14-6-14-14v-96c0-8 6-14 14-14h64c8 0 14 6 14 14v96c0 8-6 14-14 14z m-14-96h-36v68h36v-68z m-476-594h-64c-8 0-14-6-14-14v-96c0-8 6-14 14-14h64c8 0 14 6 14 14v96c0 8-6 14-14 14z m-14-96h-36v68h36v-68z m-149 96h-64c-8 0-14-6-14-14v-96c0-8 6-14 14-14h64c8 0 14 6 14 14v96c0 8-6 14-14 14z m-14-96h-36v68h36v-68z m503 96h-64c-8 0-14-6-14-14v-96c0-8 6-14 14-14h64c8 0 14 6 14 14v96c0 8-6 14-14 14z m-14-96h-36v68h36v-68z m-149 96h-64c-8 0-14-6-14-14v-96c0-8 6-14 14-14h64c8 0 14 6 14 14v96c0 8-6 14-14 14z m-14-96h-36v68h36v-68z m341 96h-64c-8 0-14-6-14-14v-96c0-8 6-14 14-14h64c8 0 14 6 14 14v96c0 8-6 14-14 14z m-14-96h-36v68h36v-68z m-552 379c0-114 93-207 207-207s207 93 207 207-93 207-207 207-207-93-207-207z m386 0c0-98-80-179-179-179s-179 80-179 179 80 179 179 179 179-80 179-179z m-236 99c-4-3-7-7-7-12v-174c0-5 3-10 7-12 2-1 5-2 7-2s5 0 7 2l151 87c4 3 7 7 7 12s-3 10-7 12l-151 87c-4 3-10 3-14 0z m21-36l109-63-109-63v125z" horiz-adv-x="1000" />

<glyph glyph-name="cog-speedmeter" unicode="&#xe822;" d="M923 432h-32c-9 0-18 6-20 15-9 34-22 66-40 96-5 8-3 18 3 25l23 23c19 19 19 50 0 69l-47 47c-19 19-50 19-69 0l-23-23c-7-7-17-8-25-3-30 18-62 31-96 40-9 2-15 10-15 20v32c0 27-22 49-49 49h-67c-27 0-49-22-49-49v-32c0-9-6-18-15-20-34-9-66-22-96-40-8-5-18-3-25 3l-23 23c-19 19-50 19-69 0l-47-47c-19-19-19-50 0-69l23-23c7-7 8-17 3-25-18-30-31-62-40-96-2-9-10-15-20-15h-32c-27 0-49-22-49-49v-67c0-27 22-49 49-49h32c9 0 18-6 20-15 9-34 22-66 40-96 5-8 3-18-3-25l-23-23c-19-19-19-50 0-69l47-47c19-19 50-19 69 0l23 23c7 7 17 8 25 3 30-18 62-31 96-40 9-2 15-10 15-20v-32c0-27 22-49 49-49h67c27 0 49 22 49 49v32c0 9 6 18 15 20 34 9 66 22 96 40 8 5 18 3 25-3l23-23c19-19 50-19 69 0l47 47c19 19 19 50 0 69l-23 23c-7 7-8 17-3 25 18 30 31 62 40 96 2 9 10 15 20 15h32c27 0 49 22 49 49v67c0 27-22 49-49 49z m21-115c0-11-9-21-21-21h-32c-22 0-42-15-47-36-8-31-21-61-37-89-11-19-8-43 8-59l23-23c8-8 8-21 0-29l-47-47c-8-8-21-8-29 0l-23 23c-16 16-40 19-59 8-28-16-58-29-89-37-21-6-36-25-36-47v-32c0-11-9-21-21-21h-67c-11 0-21 9-21 21v32c0 22-15 42-36 47-31 8-61 21-89 37-8 4-16 7-24 7-13 0-25-5-35-14l-23-23c-8-8-21-8-29 0l-47 47c-8 8-8 21 0 29l23 23c16 16 19 40 8 59-16 28-29 58-37 89-6 21-25 36-47 36h-32c-11 0-21 9-21 21v67c0 11 9 21 21 21h32c22 0 42 15 47 36 8 31 21 61 37 89 11 19 8 43-8 59l-23 23c-8 8-8 21 0 29l47 47c8 8 21 8 29 0l23-23c16-16 40-19 59-8 28 16 58 29 89 37 21 6 36 25 36 47v32c0 11 9 21 21 21h67c11 0 21-9 21-21v-32c0-22 15-42 36-47 31-8 61-21 89-37 19-11 43-8 59 8l23 23c8 8 21 8 29 0l47-47c8-8 8-21 0-29l-23-23c-16-16-19-40-8-59 16-28 29-58 37-89 6-21 25-36 47-36h32c11 0 21-9 21-21v-67z m-188 156c-22 45-56 84-98 112h-1c-45 29-98 47-156 47s-111-17-156-47h-1c-42-28-75-67-98-112-18-37-28-79-28-123 0-157 127-284 284-284s284 127 284 284-10 86-28 123z m-1-109h-55c-1 21-6 42-14 61l49 24c11-26 18-55 19-84z m-31 110l-49-24c-13 23-31 43-52 60l30 46c29-22 53-49 71-81z m-323 51l-30 46c34 20 74 33 116 35v-55c-31-2-60-11-85-26z m113 80c42-2 81-15 116-35l-30-46c-25 15-54 24-85 26v55z m-167-50l30-46c-21-16-39-36-52-60l-49 24c18 32 42 60 71 81z m-83-107l49-24c-8-19-12-39-14-61h-55c2 30 8 58 19 84z m236-354c-136 0-248 107-255 242h68c8 0 14 6 14 14 0 95 78 173 173 173s173-78 173-173 6-14 14-14h68c-7-135-119-242-255-242z m14 269v123c0 8-6 14-14 14s-14-6-14-14v-123c-38-7-66-40-66-79s36-80 80-80 80 36 80 80-29 72-66 79z m-14-132c-29 0-52 23-52 52s23 52 52 52 52-23 52-52-23-52-52-52z" horiz-adv-x="1000" />

<glyph glyph-name="close" unicode="&#xe823;" d="M989 804l-35 35-454-454-454 454-35-35 454-454 35-35 454-454 35 35-454 454 454 454z m-978-907l419 419 35-36-418-419z" horiz-adv-x="1000" />

<glyph glyph-name="email" unicode="&#xe824;" d="M950 596h-672c-27 0-50-22-50-50v-64h-214c-8 0-14-6-14-13s6-14 14-14h214v-49h-100c-8 0-14-6-14-14s6-14 14-14h100v-57h-175c-8 0-14-6-14-14s6-14 14-14h175v-49h-61c-8 0-14-6-14-14s6-14 14-14h61v-64c0-27 22-50 50-50h673c27 0 50 22 50 50v394c0 27-22 50-50 50z m23-363l-182 119 182 116v-235z m-695 336h673c12 0 22-10 22-22v-46l-359-230-359 230v46c0 12 10 22 22 22z m-23-101l182-116-182-119v235z m695-337h-672c-12 0-22 10-22 22v47l207 135 144-92c2-1 5-2 7-2s5 0 7 2l144 92 207-135v-47c0-12-10-22-22-22z m-898 248h31c8 0 14 6 14 14s-6 14-14 14h-31c-8 0-14-6-14-14s6-14 14-14z m70-134h-31c-8 0-14-6-14-14s6-14 14-14h31c8 0 14 6 14 14s-6 14-14 14z" horiz-adv-x="1000" />

<glyph glyph-name="phone" unicode="&#xe825;" d="M774 178c-125 72-176 17-178 15-2-2-3-4-3-6l-17-85c-74 30-143 75-200 132-57 57-102 125-132 200l85 17c2 0 4 2 6 3 2 2 57 53-15 178-65 113-152 90-156 89-2 0-4-2-6-3l-121-123c-17-17-25-42-21-66 28-165 104-315 220-436 120-116 271-192 436-220 4 0 8-1 12-1 20 0 39 8 53 22l122 122c2 2 3 4 3 6 1 4 24 91-89 156z m64-145l-120-120c-11-11-27-16-43-14-159 27-305 100-421 213-112 116-185 262-212 422-3 16 2 31 14 43l120 120c14 2 74 6 123-77 52-91 29-133 22-142l-96-20c-4 0-7-3-9-7-2-3-2-7 0-11 31-84 80-161 143-224 63-63 140-113 224-143 4-1 8-1 11 0 3 2 6 5 7 9l20 96c10 7 52 30 142-22 84-49 80-108 78-123z m-379 405c0-7 6-13 13-13 31 0 59-12 81-34 22-22 34-51 34-81 0-7 6-13 13-13h64c7 0 13 6 13 13 0 55-21 106-60 145-39 39-90 60-145 60-7 0-13-6-13-13v-64z m139-1c31-31 49-70 52-113h-37c-3 33-17 63-41 87-24 24-54 38-87 41v37c43-3 82-21 113-52z m-126 144c73 0 141-28 192-79 51-51 79-119 79-192 0-4 1-7 4-9 2-2 6-4 9-4h64c7 0 13 6 13 13 0 97-38 187-106 256-68 68-159 106-256 106s-13-6-13-13v-64c0-4 1-7 4-9s6-4 9-4z m13 64c85-3 163-38 223-98 60-60 94-139 98-223h-37c-3 75-34 144-87 197s-123 84-197 87v37z m353 31c-98 98-228 152-366 152-4 0-7-1-10-4-2-3-4-6-4-9v-64c0-7 6-13 13-13 114 0 221-44 302-125 81-81 125-188 125-302 0-7 6-13 13-13h64c7 0 13 6 13 13 0 138-54 268-151 366z m87-352c-3 116-50 225-133 308s-191 129-308 133v37c126-3 244-54 334-143 90-90 140-208 143-334h-37z" horiz-adv-x="1000" />

<glyph glyph-name="viking-ship" unicode="&#xe826;" d="M263-154c-49 0-95 19-130 54-35 35-54 81-54 130v233h-79v28h212v-109c0-35 14-67 38-92 25-25 57-38 92-38s51-2 81-3c18 0 36-2 55-3h7v72h-203l6 18c24 78 37 155 38 228 0 76-12 150-37 222l-7 19h174v249h28v-16l198-62c3-1 6-4 7-7 2-3 2-7 0-11-1-4-4-7-8-9l-198-85v-60h223l4-9c32-79 49-158 49-235 0-79-16-158-49-235l-4-8h-193v-73h26c107 0 249 14 249 138v109h212v-28h-79v-233c0-49-19-95-54-130-35-35-81-54-130-54h-474z m-156 184c0-41 16-81 46-110s69-46 110-46h473c41 0 81 16 110 46 30 30 46 69 46 110v233h-76v-81c0-115-85-166-277-166s-81 2-117 4c-30 2-57 3-80 3-42 0-82 17-112 47s-47 70-47 112v81h-76v-233z m533 537c16-69 24-138 24-207 0-69-8-138-24-207l-2-8h50l2 4c28 69 42 140 42 211 0 69-15 140-42 211l-2 4h-50l2-8z m-107 0c16-69 24-138 24-207 0-69-8-138-24-207l-2-8h78v5c18 70 27 140 27 210s-9 140-26 210v5h-80l2-8z m-107 0c16-69 24-138 24-207 0-69-8-138-24-207l-2-8h78v5c18 70 27 140 27 210s-9 140-26 210v5h-80l2-8z m-102 0c20-66 30-134 30-203 0-68-11-138-31-210l-2-9h75v5c18 70 27 140 27 210s-9 140-26 210v5h-75l3-9z m160 127l153 66-153 48v-114z" horiz-adv-x="1000" />

<glyph glyph-name="vimeo" unicode="&#xf306;" d="M896 558q-32-186-171-351t-245-237q-42-28-81-17t-66 38-43 61q-16 32-78 239t-74 223q-16 12-38 5t-44-21l-20-14-36 50q18 20 46 52t100 89 124 67q30 6 53-7t36-35 23-60 15-70 12-75 13-67q14-54 21-80t17-54 18-39 18-11q40 0 126 166 42 76 6 124t-112 2q22 126 140 188 104 54 182 8 80-46 58-174z" horiz-adv-x="901" />

<glyph glyph-name="facebook" unicode="&#xf30c;" d="M500 644l-142 0q-14 0-25-15t-11-37l0-102 178 0 0-148-178 0 0-442-170 0 0 442-152 0 0 148 152 0 0 86q0 94 59 159t147 65l142 0 0-156z" horiz-adv-x="500" />

<glyph glyph-name="youtube" unicode="&#xf315;" d="M638 349l-378 190 0-380z m-559 330l689 0c56 0 80-24 80-79l0-501c0-52-24-79-80-79l-689 0c-51 0-79 27-79 79l0 501c0 55 28 83 79 79z" horiz-adv-x="848" />

<glyph glyph-name="linkedin" unicode="&#xf318;" d="M204 698q0-40-29-68t-75-28q-44 0-72 28t-28 68q0 42 28 69t74 27 73-27 29-69z m-198-790l0 618 192 0 0-618-192 0z m306 420q0 86-4 198l166 0 10-86 4 0q60 100 190 100 100 0 161-67t61-199l0-366-192 0 0 342q0 134-98 134-70 0-98-72-6-12-6-48l0-356-194 0 0 420z" horiz-adv-x="900" />

<glyph glyph-name="instagram" unicode="&#xf32d;" d="M690 350q0 26-6 50l176 0 0-344q0-56-39-96t-95-40l-592 0q-56 0-95 40t-39 96l0 344 174 0q-4-32-4-50 0-106 76-183t184-77q106 0 183 77t77 183z m36 430q56 0 95-39t39-95l0-146-218 0q-78 110-212 110-138 0-212-110l-218 0 0 146q0 56 39 95t95 39l592 0z m64-166l0 72q0 24-24 24l-72 0q-24 0-24-24l0-72q0-8 7-16t17-8l72 0q24 0 24 24z m-200-264q0-66-47-113t-113-47-113 47-47 113q0 68 47 114t113 46 113-46 47-114z" horiz-adv-x="860" />

<glyph glyph-name="behance" unicode="&#xf34e;" d="M404 386q56 0 85-40t31-80l0-40q0-56-20-96t-50-58-59-27-49-11l-342 0 0 646 322 0q78 0 127-44t49-128q0-50-23-81t-47-37z m-262 180l0-144 170 0q26 0 40 15t14 61q0 30-11 47t-23 19l-10 2-180 0z m172-416q74 0 74 84 0 40-16 62t-32 24l-18 2-180 0 0-172 172 0z m468 366q70 0 118-29t67-70 27-82 6-69l-2-30-320 0q0-54 27-82t55-28l26-2q46 0 71 17t27 33l2 18 108 0q0-82-53-124t-105-44l-54-2q-72 0-122 25t-72 62-33 73-11 60l0 26q0 10 1 27t14 60 36 75 72 59 115 27z m98-194q0 4-1 11t-6 24-13 30-28 24-46 11q-42 0-70-25t-34-51l-6-24 204 0z m26 320l0-78-256 0 0 78 256 0z" horiz-adv-x="1000" />
</font>
</defs>
</svg>
